♺ Acceed - Authentic Street Cruising Handsome Guys - 2of2 [ACD100]

CategoryAsian
Download
You need to Login or Signup first.
DescriptionOriginal upload: 2012-11-18 |
Original Title: 実録!! 街で噂のイケメンをガチナンパ!!
Release Date: 2010/11/10

General
Format                                  : MPEG-4
Codec ID                                : M4V
File size                                : 1.85 GiB
Duration                                : 1h 53mn
Overall bit rate mode                    : Variable
Overall bit rate                        : 2 337 Kbps
Encoded date                            : UTC 2012-07-28 19:31:00
Tagged date                              : UTC 2012-07-28 19:31:00

Video
ID                                      : 1
Format                                  : AVC
Format/Info                              : Advanced Video Codec
Format profile                          : Main@L4.1
Format settings, CABAC                  : Yes
Format settings, ReFrames                : 4 frames
Frame mode                              : Frame doubling
Codec ID                                : avc1
Codec ID/Info                            : Advanced Video Coding
Duration                                : 1h 53mn
Bit rate mode                            : Variable
Bit rate                                : 2 220 Kbps
Maximum bit rate                        : 15.0 Mbps
Width                                    : 1 280 pixels
Height                                  : 720 pixels
Display aspect ratio                    : 16:9
Frame rate mode                          : Constant
Frame rate                              : 29.970 fps
Color space                              : YUV
Chroma subsampling                      : 4:2:0
Bit depth                                : 8 bits
Scan type                                : Progressive
Bits/(Pixel*Frame)                      : 0.080
Stream size                              : 1.75 GiB (95%)
Writing library                          : x264 core 125 r2200 999b753
Encoding settings                        : cabac=1 / ref=4 / deblock=1:-1:-1 / analyse=0x1:0x131 / me=umh / subme=10 / psy=1 / psy_rd=1.00:0.15 / mixed_ref=1 / me_range=24 / chroma_me=1 / trellis=2 / 8x8dct=0 / cqm=0 / deadzone=21,11 / fast_pskip=1 / chroma_qp_offset=-3 / threads=9 / lookahead_threads=1 / sliced_threads=0 / slices=4 / nr=16 / decimate=1 / interlaced=0 / bluray_compat=1 / constrained_intra=0 / bframes=3 / b_pyramid=0 / b_adapt=2 / b_bias=0 / direct=3 / weightb=0 / open_gop=0 / weightp=0 / keyint=60 / keyint_min=1 / scenecut=40 / intra_refresh=0 / rc_lookahead=60 / rc=2pass / mbtree=1 / bitrate=2220 / ratetol=1.0 / qcomp=0.60 / qpmin=0 / qpmax=69 / qpstep=4 / cplxblur=20.0 / qblur=0.5 / vbv_maxrate=15000 / vbv_bufsize=15000 / nal_hrd=vbr / ip_ratio=1.40 / aq=1:1.00
Language                                : Japanese
Encoded date                            : UTC 2012-07-28 19:31:00
Tagged date                              : UTC 2012-07-28 19:32:06
Color primaries                          : BT.709
Transfer characteristics                : BT.709
Matrix coefficients                      : BT.709

Audio
ID                                      : 2
Format                                  : AAC
Format/Info                              : Advanced Audio Codec
Format profile                          : LC
Codec ID                                : 40
Duration                                : 1h 53mn
Bit rate mode                            : Variable
Bit rate                                : 113 Kbps
Maximum bit rate                        : 135 Kbps
Channel(s)                              : 2 channels
Channel positions                        : Front: L R
Sampling rate                            : 48.0 KHz
Compression mode                        : Lossy
Stream size                              : 91.7 MiB (5%)
Language                                : Japanese
Encoded date                            : UTC 2012-07-28 19:32:03
Tagged date                              : UTC 2012-07-28 19:32:06
Added2015-08-13 15:43:06
Size1.85 GB (1,983,875,792 bytes)
Views460
Num files1 files
Pictures