Guys shitting

CategoryScat
Download
You need to Login or Signup first.
Description      Format : MPEG-4
      Format profile : 3GPP Media Release 5
      Codec ID : 3gp5
      File size : 379 KiB
      Duration : 48s 0ms
      Overall bit rate : 64.7 Kbps
      Encoded date : UTC 2008-01-13 12:30:13
      Tagged date : UTC 2008-01-13 12:30:13
  Video #1
      ID : 1
      Format : H.263
      Format profile : BaseLine@4.5
      Codec ID : s263
      Duration : 47s 688ms
      Bit rate mode : Variable
      Bit rate : 51.6 Kbps
      Width : 176 pixels
      Height : 144 pixels
      Display aspect ratio : 1.222
      Frame rate mode : Variable
      Frame rate : 9.898 fps
      Minimum frame rate : 1.838 fps
      Maximum frame rate : 10.417 fps
      Compression mode : Lossy
      Bits/(Pixel*Frame) : 0.206
      Stream size : 301 KiB (79%)
      Writing library : EMP
      Language : Japanese
      Encoded date : UTC 2008-01-13 12:30:13
      Tagged date : UTC 2008-01-13 12:30:13
  Audio #2
      ID : 2
      Format : AMR
      Format/Info : Adaptive Multi-Rate
      Format profile : Narrow band
      Codec ID : samr
      Duration : 48s 0ms
      Bit rate mode : Constant
      Bit rate : 12.8 Kbps
      Channel(s) : 1 channel
      Sampling rate : 8 000 Hz
      Bit depth : 13 bits
      Stream size : 75.0 KiB (20%)
      Writing library : EMP
      Language : Japanese
      Encoded date : UTC 2008-01-13 12:30:13
      Tagged date : UTC 2008-01-13 12:30:13
Added2015-12-13 08:42:40
Size5.27 MB (5,523,037 bytes)
Views15
Num files15 files
Pictures