♺ Homemade 2 boys on cam-2

CategoryHomemade
Download
You need to Login or Signup first.
DescriptionOriginal upload: 2014-03-25 |
General
      Complete name : 4e33cd7d94a8f.mp4
      Format : MPEG-4
      Format profile : Base Media
      Codec ID : isom
      File size : 59.1 MiB
      Duration : 30mn 40s
      Overall bit rate : 269 Kbps
      Encoded date : UTC 1970-01-01 00:00:00
      Tagged date : UTC 1970-01-01 00:00:00
      Writing application : Lavf52.31.0
  Video #1
      ID : 1
      Format : AVC
      Format/Info : Advanced Video Codec
      Format profile : High@L1.3
      Format settings, CABAC : Yes
      Format settings, ReFrames : 4 frames
      Codec ID : avc1
      Codec ID/Info : Advanced Video Coding
      Duration : 30mn 40s
      Bit rate mode : Variable
      Bit rate : 200 Kbps
      Width : 352 pixels
      Height : 240 pixels
      Display aspect ratio : 1.467
      Frame rate mode : Constant
      Frame rate : 20.000 fps
      Resolution : 24 bits
      Colorimetry : 4:2:0
      Scan type : Progressive
      Bits/(Pixel*Frame) : 0.118
      Stream size : 43.9 MiB (74%)
      Encoded date : UTC 1970-01-01 00:00:00
      Tagged date : UTC 1970-01-01 00:00:00
  Audio #2
      ID : 2
      Format : AAC
      Format/Info : Advanced Audio Codec
      Format version : Version 4
      Format profile : LC
      Format settings, SBR : No
      Codec ID : 40
      Duration : 30mn 39s
      Bit rate mode : Variable
      Bit rate : 64.0 Kbps
      Channel(s) : 2 channels
      Channel positions : L R
      Sampling rate : 44.1 KHz
      Resolution : 16 bits
      Stream size : 14.0 MiB (24%)
      Encoded date : UTC 1970-01-01 00:00:00
      Tagged date : UTC 1970-01-01 00:00:00
Added2016-07-13 13:23:06
Size59.08 MB (61,954,383 bytes)
Views295
Num files1 files
Pictures